Начать новую тему Ответить на тему  [ 1 сообщение ] 
Статистика раздачи
Размер: 1.07 ГБ | Добавлен: 13 ноя 2017, 19:41 | Скачали: 4824
Сидеров: 11  [0 байт/сек]    Личеров: 9  [0 байт/сек]
Автор

СообщениеДобавлено: 13 ноя 2017, 19:41 

Не в сети
Супераплоадер
Супераплоадер
Аватара пользователя
Раздал: 1011.16 ГБ
Скачал: 272.47 ГБ
Ратио: 3.711


Зарегистрирован: 10 окт 2013, 18:02
Сообщения: 3082
Год производства: 2017
Название ролика: Two teens wild threesome with MILF
Жанр: Milf , Latina , Big Tits
В ролях: Amy Red, Anissa Kate, Lola Bulgari
Продолжительность: 24mn 45s
Подсайт и сайт: Mom XXX

Description:
A busy businesswoman like Anissa Kate needs a relaxing home base, and she can't wait to get back to her abode. Distracted by a phone call, Anissa accidentally drops a wad of cash outside. Coincidentally, teen girlfriends Lola Bulgari and Amy Red are passing by at the exact same time. Amazed by their luck, the ladies pick up the money, but have a sexier prize in mind. Entering the house, Lola and Amy surprise Anissa in the shower, and Anissa can't believe her luck: two beautiful teens that want to fuck her, both getting naked and showing off their amazing tits and big booties! Amy gets on her knees and eats Anissa's pussy while Lola gives the MILF a rimjob. Moving to the bedroom, Anissa makes the two teens cum by fingering them at the same time! The ladies take turns sucking and fucking each other, until they've cum so much that all that's left to do is suck Anissa's toes.

Тип видео : HD
Формат видео : MP4
Video
ID : 1
Format : AVC
Format/Info : Advanced Video Codec
Format profile : [email protected]
Format settings, CABAC : Yes
Format settings, ReFrames : 5 frames
Codec ID : avc1
Codec ID/Info : Advanced Video Coding
Duration : 24mn 45s
Bit rate : 6 000 Kbps
Width : 1 920 pixels
Height : 1 080 pixels
Display aspect ratio : 16:9
Frame rate mode : Constant
Frame rate : 25.000 fps
Color space : YUV
Chroma subsampling : 4:2:0
Bit depth : 8 bits
Scan type : Progressive
Bits/(Pixel*Frame) : 0.116
Stream size : 1.04 GiB (97%)
Writing library : x264 core 148 r2744 b97ae06
Encoding settings : cabac=1 / ref=5 / deblock=1:0:0 / analyse=0x3:0x113 / me=hex / subme=8 / psy=1 / psy_rd=1.00:0.00 / mixed_ref=1 / me_range=16 / chroma_me=1 / trellis=2 / 8x8dct=1 / cqm=0 / deadzone=21,11 / fast_pskip=1 / chroma_qp_offset=-2 / threads=34 / lookahead_threads=5 / sliced_threads=0 / nr=0 / decimate=1 / interlaced=0 / bluray_compat=0 / constrained_intra=0 / bframes=3 / b_pyramid=2 / b_adapt=1 / b_bias=0 / direct=3 / weightb=1 / open_gop=0 / weightp=2 / keyint=60 / keyint_min=6 / scenecut=40 / intra_refresh=0 / rc_lookahead=50 / rc=abr / mbtree=1 / bitrate=6000 / ratetol=1.0 / qcomp=0.60 / qpmin=0 / qpmax=69 / qpstep=4 / ip_ratio=1.40 / aq=1:1.00
Encoded date : UTC 1904-01-01 00:00:00
Tagged date : UTC 1904-01-01 00:00:00

Audio
ID : 2
Format : AAC
Format/Info : Advanced Audio Codec
Format profile : LC
Codec ID : 40
Duration : 24mn 45s
Duration_LastFrame : -1ms
Bit rate mode : Constant
Bit rate : 192 Kbps
Channel(s) : 2 channels
Channel positions : Front: L R
Sampling rate : 48.0 KHz
Frame rate : 46.875 fps (1024 spf)
Compression mode : Lossy
Stream size : 34.1 MiB (3%)
Default : Yes
Alternate group : 1
Encoded date : UTC 1904-01-01 00:00:00
Tagged date : UTC 1904-01-01 00:00:00

Скриншоты:



Как тут качатьЗаказ порнушки!
Добавлен:  13 ноя 2017, 19:41

Скачать торрент Магнет ссылка
Скачать торрент

Размер: 1.07 ГБ
Скачали: 4824
Статус Проверен
 
Последний сидер: 1 день 17 часов 43 минуты 26 секунд назад
Приватный: Нет (DHT включён)
Нет сидов? Пиши сюдаКак скачать отдельный файл из раздачи?


Вернуться к началу
 Профиль  
 
Показать сообщения за:  Поле сортировки  
Начать новую тему Ответить на тему  [ 1 сообщение ] 


Кто сейчас на конференции

Зарегистрированные пользователи: Google [Bot], Majestic-12 [Bot], Yandex [Bot]


Вы не можете начинать темы
Вы не можете отвечать на сообщения
Вы не можете редактировать свои сообщения
Вы не можете удалять свои сообщения
Вы не можете добавлять вложения

Найти:
Перейти: