Начать новую тему Ответить на тему  [ 1 сообщение ] 
Статистика раздачи
Размер: 1.05 ГБ | Добавлен: 13 ноя 2017, 19:24 | Скачали: 8448
Сидеров: 129  [0 байт/сек]    Личеров: 58  [0 байт/сек]
Автор

СообщениеДобавлено: 13 ноя 2017, 19:24 

Не в сети
Супераплоадер
Супераплоадер
Аватара пользователя
Раздал: 1011.16 ГБ
Скачал: 272.47 ГБ
Ратио: 3.711


Зарегистрирован: 10 окт 2013, 18:02
Сообщения: 3082
Год производства: 2017
Название ролика: Russian redhead fucked hard by teen
Жанр: All Sex,Milf , Small Tits
В ролях: Eva Berger
Продолжительность:24 min 8 s
Подсайт и сайт: Mom XXX

Description:
Teen stud Connor is about to turn twenty, but is already one of the luckiest men in the world: he's caught the eye of sexy MILF Eva Berger. Eva, a stunning redhead, grinds her big ass up against Connor's cock as he lifts her grey skirt for a better view. The lovers kiss passionately as Connor feels Eva's beautiful big tits, then eats her pussy and ass. Eva and Connor move to the bedroom, and the redhead MILF pushes the younger man on the bed. She unbuckles his pants as Connor feels the blood rush to his throbbing cock. Eva gives him a masterful blowjob, then mounts his thick dick to fuck him cowgirl style. Connor fucks Eva's pussy sideways, and the couple 69, savoring each other's taste, until Eva is so turned on she jerks Connor off onto her face!

Тип видео : HD
Формат видео : MP4
Video
ID : 1
Format : AVC
Format/Info : Advanced Video Codec
Format profile : [email protected]
Format settings : CABAC / 5 Ref Frames
Format settings, CABAC : Yes
Format settings, RefFrames : 5 frames
Codec ID : avc1
Codec ID/Info : Advanced Video Coding
Duration : 24 min 8 s
Bit rate : 6 000 kb/s
Width : 1 920 pixels
Height : 1 080 pixels
Display aspect ratio : 16:9
Frame rate mode : Constant
Frame rate : 25.000 FPS
Color space : YUV
Chroma subsampling : 4:2:0
Bit depth : 8 bits
Scan type : Progressive
Bits/(Pixel*Frame) : 0.116
Stream size : 1.02 GiB (97%)
Writing library : x264 core 148 r2744 b97ae06
Encoding settings : cabac=1 / ref=5 / deblock=1:0:0 / analyse=0x3:0x113 / me=hex / subme=8 / psy=1 / psy_rd=1.00:0.00 / mixed_ref=1 / me_range=16 / chroma_me=1 / trellis=2 / 8x8dct=1 / cqm=0 / deadzone=21,11 / fast_pskip=1 / chroma_qp_offset=-2 / threads=34 / lookahead_threads=5 / sliced_threads=0 / nr=0 / decimate=1 / interlaced=0 / bluray_compat=0 / constrained_intra=0 / bframes=3 / b_pyramid=2 / b_adapt=1 / b_bias=0 / direct=3 / weightb=1 / open_gop=0 / weightp=2 / keyint=60 / keyint_min=6 / scenecut=40 / intra_refresh=0 / rc_lookahead=50 / rc=abr / mbtree=1 / bitrate=6000 / ratetol=1.0 / qcomp=0.60 / qpmin=0 / qpmax=69 / qpstep=4 / ip_ratio=1.40 / aq=1:1.00

Audio
ID : 2
Format : AAC
Format/Info : Advanced Audio Codec
Format profile : LC
Codec ID : mp4a-40-2
Duration : 24 min 8 s
Bit rate mode : Constant
Bit rate : 192 kb/s
Channel(s) : 2 channels
Channel positions : Front: L R
Sampling rate : 48.0 kHz
Frame rate : 46.875 FPS (1024 SPF)
Compression mode : Lossy
Stream size : 33.2 MiB (3%)
Default : Yes
Alternate group : 1

Скриншоты:



Как тут качатьЗаказ порнушки!
Добавлен:  13 ноя 2017, 19:24

Скачать торрент Магнет ссылка
Скачать торрент

Размер: 1.05 ГБ
Скачали: 8448
Статус Проверен
 
Последний сидер: 12 часов 51 минуту 24 секунды назад
Приватный: Нет (DHT включён)
Нет сидов? Пиши сюдаКак скачать отдельный файл из раздачи?


Вернуться к началу
 Профиль  
 
Показать сообщения за:  Поле сортировки  
Начать новую тему Ответить на тему  [ 1 сообщение ] 


Кто сейчас на конференции

Зарегистрированные пользователи: Google [Bot], Yandex [Bot]


Вы не можете начинать темы
Вы не можете отвечать на сообщения
Вы не можете редактировать свои сообщения
Вы не можете удалять свои сообщения
Вы не можете добавлять вложения

Найти:
Перейти: